<?xml version="1.0" standalone="no"?>
<!DOCTYPE svg PUBLIC "-//W3C//DTD SVG 1.1//EN" "http://www.w3.org/Graphics/SVG/1.1/DTD/svg11.dtd" >
<svg xmlns="http://www.w3.org/2000/svg">
<metadata>Generated by IcoMoon</metadata>
<defs>
<font id="icomoon" horiz-adv-x="1024">
<font-face units-per-em="1024" ascent="960" descent="-64" />
<missing-glyph horiz-adv-x="1024" />
<glyph unicode="&#x20;" horiz-adv-x="512" d="" />
<glyph unicode="&#xe900;" glyph-name="arrow-up-down" horiz-adv-x="970" d="M885.631 331.474c-5.702 5.804-13.495 9.070-21.628 9.070s-15.926-3.266-21.623-9.070l-137.432-137.836v363.79c0 16.743-13.576 30.316-30.316 30.316-16.745 0-30.316-13.573-30.316-30.316v-363.79l-137.837 137.836c-7.654 7.729-18.848 10.784-29.366 8.020-10.518-2.77-18.761-10.935-21.625-21.423-2.864-10.493 0.087-21.714 7.74-29.443l189.98-188.362c2.727-2.835 6.036-5.039 9.701-6.467 3.697-1.611 7.685-2.436 11.722-2.425 3.902-0.016 7.761 0.814 11.318 2.425 3.778 1.434 7.222 3.633 10.105 6.467l189.575 189.575c11.038 11.684 11.038 29.949 0 41.634zM463.634 515.795c11.974-11.868 31.276-11.868 43.251 0 11.821 11.836 11.821 31.010 0 42.846l-189.979 188.362c-2.726 2.834-6.036 5.041-9.701 6.467-7.42 2.829-15.62 2.829-23.040 0-3.734-1.523-7.158-3.715-10.105-6.467l-189.575-188.362c-11.821-11.836-11.821-31.010 0-42.846 5.63-5.778 13.356-9.037 21.423-9.037s15.793 3.259 21.423 9.037l137.836 137.836v-363.79c0-10.833 5.778-20.836 15.158-26.252s20.936-5.416 30.316 0c9.38 5.416 15.158 15.419 15.158 26.252v363.79l137.836-137.836z" />
<glyph unicode="&#xe901;" glyph-name="arrow-down" d="M511.998 245.34c-8.493-0.040-16.644 3.343-22.613 9.387l-341.333 341.333c-11.748 12.608-11.401 32.256 0.784 44.442s31.834 12.533 44.442 0.784l318.72-318.72 318.72 318.72c12.609 11.749 32.258 11.401 44.443-0.784s12.535-31.834 0.785-44.442l-341.335-341.333c-5.968-6.043-14.119-9.427-22.613-9.387z" />
<glyph unicode="&#xe902;" glyph-name="close" d="M558.451 416.813l302.474 301.447c12.636 12.756 12.636 33.42 0 46.176-12.418 12.984-32.918 13.373-45.807 0.871l-302.47-301.447-298.582 301.447c-6.121 6.528-14.639 10.226-23.55 10.226s-17.428-3.699-23.549-10.226c-11.204-12.324-11.204-31.238 0-43.562l298.583-301.012-302.472-301.014c-12.637-12.752-12.637-33.417 0-46.176 6.016-6.212 14.29-9.673 22.901-9.578 8.778-0.724 17.479 2.096 24.198 7.837l302.471 301.448 302.47-304.929c6.021-6.212 14.295-9.68 22.903-9.585 8.602-0.041 16.855 3.413 22.903 9.585 12.636 12.752 12.636 33.417 0 46.176l-302.474 302.316z" />
<glyph unicode="&#xe903;" glyph-name="heart" d="M500.49 92.672c-20.48 0-45.056 8.192-61.44 24.576-266.238 233.472-270.334 237.568-270.334 241.664l-4.096 4.096c-49.152 49.152-77.824 118.784-77.824 188.416v8.192c4.096 147.456 122.88 262.144 270.336 262.144 45.056 0 106.494-24.576 143.358-73.728 36.864 49.152 102.4 73.728 147.456 73.728 147.456 0 262.144-114.688 270.336-262.144v-8.192c0-73.728-28.672-139.264-77.824-192.512l-4.096-4.096c-4.096-4.096-36.864-32.768-270.336-241.664-20.48-12.288-40.96-20.48-65.536-20.48zM230.156 371.2c16.384-16.384 98.304-73.728 249.854-204.8 12.288-12.288 28.672-12.288 40.96 0 155.648 139.264 245.76 217.088 266.24 233.472l4.096 4.096c40.96 40.96 61.44 94.208 61.44 147.456v8.192c-4.096 114.688-94.208 200.704-208.896 200.704-28.672 0-86.016-20.48-106.496-65.536-8.192-16.384-24.576-24.576-40.96-24.576s-32.768 8.192-40.96 24.576c-20.48 40.96-73.726 65.536-106.494 65.536-110.592 0-204.8-90.112-208.896-200.704v-12.288c0-53.248 24.576-106.496 61.44-143.36l28.672-32.768z" />
<glyph unicode="&#xe904;" glyph-name="person" d="M835.41 247.035l10.24-48.64c9.708-42.051 0.123-86.241-26.122-120.499-26.25-34.253-66.427-54.999-109.558-56.566h-395.944c-43.128 1.567-83.304 22.313-109.553 56.566-26.25 34.258-35.831 78.449-26.127 120.499l10.24 48.64c11.778 65.843 68.379 114.232 135.254 115.625h376.321c66.872-1.393 123.474-49.782 135.25-115.625zM709.97 85.755c21.668 0.251 42.056 10.291 55.47 27.305v-0.425c16.456 20.644 22.866 47.539 17.49 73.385l-10.24 48.64c-5.678 36.045-36.065 63.037-72.53 64.43h-376.321c-36.465-1.393-66.852-28.385-72.534-64.43l-10.24-48.64c-5.241-25.708 1.163-52.419 17.494-72.96 13.411-17.014 33.801-27.054 55.466-27.305h395.944zM533.33 447.995h-42.665c-94.257 0-170.667 76.41-170.667 170.667v112.64c-0.114 38.056 14.954 74.587 41.864 101.496s63.44 41.977 101.496 41.864h97.282c38.052 0.114 74.583-14.953 101.494-41.864s41.979-63.44 41.866-101.496v-112.64c0-94.257-76.411-170.667-170.67-170.667zM463.358 810.662c-43.829 0-79.36-35.531-79.36-79.36v-112.64c0-58.91 47.756-106.666 106.667-106.666h42.665c58.911 0 106.67 47.756 106.67 106.666v112.64c0 21.047-8.361 41.233-23.245 56.116s-35.067 23.244-56.115 23.244h-97.282z" />
<glyph unicode="&#xe905;" glyph-name="shopping" d="M362.665 853.338h298.664c141.389 0 256-114.615 256-256v-298.668c0-141.384-114.611-256-256-256h-298.664c-141.385 0-256 114.616-256 256v298.668c0 141.385 114.615 256 256 256zM661.33 106.67c105.943 0.236 191.77 86.057 192 192v298.668c-0.23 105.941-86.057 191.766-192 192h-298.664c-105.941-0.234-191.765-86.059-192-192v-298.668c0.235-105.943 86.059-191.764 192-192h298.664zM647.68 661.338c-17.577-0.23-31.77-14.423-32-32-0.445-26.934-11.663-52.567-31.145-71.169-19.487-18.601-45.609-28.621-72.536-27.818-55.459-1.677-101.825 41.826-103.68 97.279 0 17.673-14.327 32-32 32s-32-14.327-32-32c1.867-90.796 76.88-162.946 167.68-161.279 90.799-1.667 165.812 70.483 167.681 161.279 0.466 8.779-2.693 17.363-8.75 23.739-6.052 6.375-14.459 9.98-23.25 9.968z" />
<glyph unicode="&#xe906;" glyph-name="magnifier" d="M173.302 632.759c60.851 146.118 203.428 241.463 361.713 241.886 170.588 0.899 322.273-108.37 375.45-270.462 53.176-162.090-4.306-339.98-142.275-440.306-137.974-100.332-324.915-100.183-462.724 0.369l-122.88-122.88c-12.494-12.477-32.733-12.477-45.227 0-12.478 12.493-12.478 32.732 0 45.225l119.040 119.040c-111.193 112.65-143.948 281.011-83.097 427.129zM230.353 355.436c51.092-123.121 171.357-203.31 304.661-203.136v1.705c180.915 0.23 327.788 146.34 328.955 327.254 0.174 133.302-80.015 253.566-203.136 304.658s-264.901 22.938-359.159-71.321c-94.259-94.259-122.413-236.038-71.321-359.16z" />
<glyph unicode="&#xe907;" glyph-name="location" d="M512 874.66c-142.25 1.005-260.409-109.492-268.929-251.491s95.579-265.833 236.929-281.841v-183.467c0-17.675 14.327-32 32-32s32 14.325 32 32v183.467c141.352 16.009 245.447 139.843 236.931 281.841-8.522 141.999-126.68 252.496-268.931 251.491zM484.267 726.607c-49.083 0.001-88.938-39.664-89.173-88.747 0-17.673-14.327-32-32-32s-32 14.327-32 32c0.235 84.429 68.745 152.747 153.173 152.747 17.673 0 32-14.327 32-32s-14.327-32-32-32zM674.987 286.288c8.141 15.383 26.971 21.595 42.667 14.080 52.389-20.178 88.559-68.625 93.013-124.587 0-94.293-128-165.547-298.667-165.547s-298.667 71.253-298.667 165.547c5.237 55.165 41.272 102.61 93.013 122.453 15.788 8.010 35.082 1.707 43.093-14.080s1.708-35.083-14.080-43.093c-37.547-19.2-58.88-43.093-58.88-65.28 0-46.080 101.12-98.987 235.947-98.987s235.52 53.333 235.52 101.547c0 22.613-21.333 46.080-58.88 65.28-15.565 7.982-21.84 26.988-14.080 42.667z" />
<glyph unicode="&#xe908;" glyph-name="ellipse" horiz-adv-x="993" d="M713.79 43.532c13.334-23.958 4.797-54.443-20.371-65.322-80.458-34.766-168.991-47.731-256.59-37.128-104.088 12.598-201.515 57.825-278.319 129.198s-129.041 165.227-149.224 268.114c-20.183 102.887-7.277 209.52 36.869 304.621s117.266 173.784 208.88 224.773 197.018 71.666 301.106 59.068c104.088-12.598 201.514-57.825 278.32-129.198 64.636-60.067 111.874-136.057 137.247-219.953 7.938-26.245-9.837-52.441-36.743-57.719-26.909-5.278-52.702 12.403-61.294 38.44-20.908 63.364-57.539 120.711-106.806 166.494-61.443 57.099-139.385 93.28-222.655 103.359s-167.595-6.464-240.885-47.255c-73.291-40.791-131.787-103.738-167.104-179.819-35.317-76.080-45.642-161.389-29.495-243.696s57.936-157.392 119.379-214.491c61.443-57.099 139.385-93.28 222.655-103.359 66.768-8.080 134.215 0.953 196.108 25.879 25.432 10.243 55.588 1.952 68.921-22.007z" />
<glyph unicode="&#xe909;" glyph-name="tiktok" d="M728.494 960h-172.575v-697.508c0-83.108-66.373-151.373-148.972-151.373s-148.974 68.265-148.974 151.373c0 81.623 64.9 148.408 144.55 151.373v175.12c-175.524-2.967-317.123-146.919-317.123-326.493 0-181.053 144.548-326.492 323.023-326.492 178.472 0 323.020 146.924 323.020 326.492v357.659c64.901-47.491 144.548-75.687 228.623-77.173v175.12c-129.797 4.452-231.572 111.305-231.572 241.902z" />
<glyph unicode="&#xe90a;" glyph-name="youtube" d="M1013.801 652.8c0 0-9.999 70.6-40.801 101.6-38.999 40.8-82.601 41-102.6 43.4-143.201 10.4-358.2 10.4-358.2 10.4h-0.4c0 0-215 0-358.2-10.4-20-2.4-63.6-2.6-102.6-43.4-30.8-31-40.6-101.6-40.6-101.6s-10.4-83-10.4-165.8v-77.6c0-82.801 10.2-165.801 10.2-165.801s10-70.6 40.6-101.601c39-40.796 90.2-39.398 113-43.796 82-7.803 348.2-10.204 348.2-10.204s215.199 0.404 358.4 10.604c19.999 2.401 63.601 2.601 102.6 43.397 30.802 31.002 40.801 101.601 40.801 101.601s10.199 82.801 10.199 165.801v77.6c0 82.8-10.199 165.8-10.199 165.8zM406.2 315.197v287.802l276.598-144.4-276.598-143.402z" />
<glyph unicode="&#xe90b;" glyph-name="instagram" d="M512 867.8c136.801 0 153.001-0.6 206.802-3 49.997-2.2 77-10.6 94.996-17.601 23.803-9.2 41.001-20.4 58.803-38.2 17.997-18 29-35 38.2-58.8 6.999-18 15.396-45.2 17.597-95 2.401-54 3-70.2 3-206.8 0-136.802-0.599-153.001-3-206.802-2.202-49.997-10.598-77-17.597-94.996-9.201-23.803-20.403-41.001-38.2-58.803-18.002-17.997-35-29-58.803-38.2-17.997-6.999-45.199-15.396-94.996-17.597-54.001-2.401-70.2-3-206.802-3-136.8 0-153 0.599-206.8 3-50 2.202-77 10.598-95 17.597-23.8 9.201-41 20.403-58.8 38.2-18 18.002-29 35-38.2 58.803-7 17.997-15.4 45.199-17.6 94.996-2.4 54.001-3 70.2-3 206.802 0 136.8 0.6 153 3 206.8 2.2 50 10.6 77 17.6 95 9.2 23.8 20.4 41 38.2 58.8 18 18 35 29 58.8 38.2 18 7 45.2 15.4 95 17.601 53.8 2.4 70 3 206.8 3zM512 960c-139 0-156.4-0.6-211-3-54.4-2.4-91.8-11.2-124.2-23.8-33.8-13.2-62.4-30.6-90.8-59.2-28.6-28.4-46-57-59.2-90.6-12.6-32.6-21.4-69.8-23.8-124.2-2.4-54.8-3-72.2-3-211.2 0-138.998 0.6-156.401 3-211 2.4-54.4 11.2-91.802 23.8-124.201 13.2-33.797 30.6-62.397 59.2-90.798 28.4-28.401 57-46.003 90.6-59.003 32.6-12.6 69.8-21.396 124.2-23.798 54.6-2.401 72-3 211-3 138.998 0 156.401 0.599 211.001 3 54.4 2.401 91.802 11.197 124.201 23.798 33.597 13 62.198 30.602 90.598 59.003s45.998 57.001 58.998 90.598c12.6 32.599 21.402 69.801 23.803 124.201 2.401 54.6 3 71.997 3 211 0 139-0.599 156.4-3 211-2.401 54.4-11.203 91.8-23.803 124.2-12.595 34-29.998 62.6-58.598 91-28.401 28.4-57.001 46-90.598 59-32.599 12.6-69.801 21.4-124.201 23.8-54.799 2.6-72.202 3.2-211.2 3.2zM512 711c-145.2 0-263-117.8-263-263 0-145.198 117.8-262.999 263-262.999 145.198 0 262.999 117.801 262.999 262.999 0 145.2-117.801 263-262.999 263zM512 277.402c-94.2 0-170.6 76.401-170.6 170.598 0 94.2 76.4 170.6 170.6 170.6 94.198 0 170.598-76.4 170.598-170.6 0-94.198-76.401-170.598-170.598-170.598zM846.802 721.4c0-34-27.602-61.4-61.404-61.4-33.997 0-61.399 27.6-61.399 61.4 0 34 27.602 61.4 61.399 61.4 33.802 0 61.404-27.6 61.404-61.4z" />
<glyph unicode="&#xe90c;" glyph-name="facebook" d="M1024 448c0 282.77-229.228 512-512 512-282.77 0-512-229.23-512-512 0-255.549 187.23-467.369 432-505.779v357.78h-130v147.999h130v112.8c0 128.32 76.44 199.2 193.388 199.2 56.003 0 114.611-10 114.611-10v-126h-64.558c-63.601 0-83.441-39.47-83.441-80v-96h141.998l-22.697-147.999h-119.301v-357.78c244.772 38.41 432 250.23 432 505.779z" />
<glyph unicode="&#xe90d;" glyph-name="star" d="M865.815 551.969c-3.146 8.482-8.509 15.963-15.537 21.659s-15.458 9.396-24.408 10.713l-199.475 21.754-96.614 177.1c-4.468 8.083-11.087 14.771-19.126 19.324s-17.175 6.791-26.41 6.469c-9.23-0.322-18.19-3.193-25.89-8.295s-13.837-12.236-17.731-20.611l-82.476-183.354-197.471-35.617c-8.854-1.808-17.046-5.997-23.694-12.118s-11.5-13.939-14.032-22.613c-2.533-8.674-2.649-17.875-0.339-26.611 2.311-8.734 6.962-16.674 13.453-22.963l148.314-134.931-26.821-198.875c-1.632-9.425-0.464-19.121 3.361-27.885s10.137-16.216 18.156-21.43c8.582-6.051 18.92-9.1 29.412-8.676 8.106 0.321 16.015 2.593 23.055 6.628l174.278 99.621 180.801-87.222c8.355-4.054 17.673-5.688 26.908-4.71 9.23 0.977 18.004 4.524 25.321 10.235 7.322 5.711 12.893 13.359 16.081 22.081 3.188 8.718 3.868 18.157 1.964 27.243l-40.63 196.52 138.487 146.497c6.153 6.594 10.426 14.716 12.372 23.522s1.489 17.972-1.308 26.543z" />
<glyph unicode="&#xe90e;" glyph-name="share" d="M637.99 310.178c19.26-0.055 38.144-5.367 54.613-15.36h-0.427c49.643-29.611 66.505-93.483 37.939-143.74-28.561-50.257-92.066-68.45-142.912-40.947-50.842 27.503-70.366 90.611-43.934 142.020l-125.015 127.573c-9.027-5.495-18.799-9.664-29.013-12.373-8.506-2.185-17.245-3.332-26.027-3.413-54.132-0.277-99.887 40.043-106.426 93.777-6.54 53.739 28.209 103.851 80.826 116.568 8.378 2.044 16.976 3.047 25.6 2.987 22.019-0.017 43.489-6.875 61.44-19.627l118.615 118.613c-17.673 33.019-16.576 72.919 2.884 104.916 19.465 31.997 54.387 51.323 91.836 50.818 19.226 0.097 38.11-5.067 54.613-14.933 33.532-18.444 54.682-53.379 55.475-91.643s-18.884-74.046-51.627-93.867c-32.742-19.82-73.57-20.668-107.102-2.223l-125.44-125.439c1.391-3.034 2.534-6.17 3.413-9.387 5.666-22.967 3.409-47.172-6.4-68.693l128-128c15.155 7.923 31.966 12.16 49.067 12.373zM637.99 767.99c-14.98 0.087-28.907-7.686-36.693-20.48-5.82-9.753-7.509-21.424-4.693-32.427 2.462-10.986 9.429-20.431 19.2-26.027 6.541-4.057 14.059-6.269 21.76-6.4 15.061 0.003 29.009 7.949 36.693 20.907 12.087 20.154 5.602 46.289-14.507 58.453-6.532 4.033-14.084 6.106-21.76 5.973zM363.215 427.938c-20.083-0.585-37.853 12.919-42.667 32.427-2.686 11.059-0.843 22.733 5.12 32.427 5.82 9.566 15.168 16.461 26.027 19.2h10.24c20.083 0.585 37.853-12.919 42.667-32.427 2.696-10.871 1.010-22.362-4.693-32l-2.56-2.987c-5.66-8.098-13.954-13.978-23.467-16.64h-10.667zM637.564 162.978c14.976-0.090 28.902 7.684 36.693 20.48 10.688 19.669 4.356 44.258-14.507 56.32-6.545 4.058-14.063 6.268-21.76 6.4-15.066-0.004-29.013-7.949-36.693-20.907-12.092-20.156-5.602-46.289 14.507-58.453 6.75-3.294 14.289-4.625 21.76-3.84z" />
<glyph unicode="&#xe90f;" glyph-name="plus" d="M842.667 490.667h-309.333v309.333c0 17.673-14.327 32-32 32s-32-14.327-32-32v-309.333h-309.333c-17.673 0-32-14.327-32-32s14.327-32 32-32h309.333v-309.333c0-17.675 14.327-32 32-32s32 14.325 32 32v309.333h309.333c17.675 0 32 14.327 32 32s-14.325 32-32 32z" />
<glyph unicode="&#xe910;" glyph-name="minus" d="M842.667 426.667h-682.667c-17.673 0-32 14.327-32 32s14.327 32 32 32h682.667c17.675 0 32-14.327 32-32s-14.325-32-32-32z" />
<glyph unicode="&#xe911;" glyph-name="like" d="M870.349 532.375h-205.045c79.844 110.686 56.252 221.372 59.881 261.292v1.814c0 48.993-38.104 88.912-87.097 88.912-59.881 0-79.84-50.807-99.8-103.428-23.588-61.694-54.436-139.719-156.050-188.711l-65.323-34.476v3.629c0 19.96-16.331 36.291-36.291 36.291h-114.315c-50.807 0-90.727-39.92-90.727-90.726v-390.122c0-50.807 39.92-90.726 90.727-90.726h114.315c19.959 0 36.291 16.327 36.291 36.289v1.815c30.847-7.259 56.251-14.518 79.839-19.962 68.952-18.142 119.759-32.66 192.341-32.66h192.341c41.734 0 76.208 34.475 76.208 78.023 0 18.148-5.444 34.475-16.333 47.178 29.036 10.889 48.993 39.919 48.993 72.585 0 18.142-5.444 34.475-16.327 47.178 29.030 10.883 48.993 39.919 48.993 72.579 0 19.962-7.259 36.289-18.148 50.807 25.407 12.701 43.548 39.919 43.548 70.766-1.815 47.177-36.289 81.654-78.023 81.654zM166.31 64.228c-30.847 0-54.436 23.586-54.436 54.437v390.122c0 30.847 23.589 54.436 54.436 54.436h114.315v-497.18h-114.315v-1.815zM870.349 412.616h-107.059c-10.889 0-18.142-7.258-18.142-18.145s7.253-18.145 18.142-18.145h81.653c21.777 0 39.919-18.148 39.919-41.734 0-23.592-18.142-41.734-39.919-41.734h-114.313c-10.889 0-18.148-7.259-18.148-18.148s7.259-18.142 18.148-18.142h81.653c21.777 0 39.919-18.148 39.919-41.739 0-23.586-18.142-41.734-39.919-41.734h-114.313c-10.889 0-18.148-7.253-18.148-18.142 0-30.851 45.363-14.518 99.8-18.148 21.771 0 39.919-18.142 39.919-41.734 0-23.586-18.148-45.363-39.919-45.363h-192.341c-68.952 0-114.315 12.703-183.268 30.845-25.404 7.259-54.436 14.518-88.912 23.592v413.712l83.469 39.92c114.315 56.251 148.791 145.163 174.193 208.671 21.777 54.436 32.666 79.839 65.326 79.839 27.216 0 48.993-23.589 50.807-50.807-3.63-45.363 18.142-143.347-54.437-243.147l-19.962-27.218c-9.068-10.887 0-29.032 14.518-29.032h241.334c21.771 0 39.919-18.145 39.919-41.734s-18.148-41.734-39.919-41.734z" />
<glyph unicode="&#xe912;" glyph-name="check" d="M392.959 210.765c-7.165-0.314-14.227 1.792-20.053 5.971l-191.574 158.294c-12.342 10.927-14.201 29.512-4.266 42.667 10.908 12.285 29.348 14.314 42.666 4.693l170.667-139.094 448.001 414.294c13.248 9.947 31.898 8.137 42.989-4.172 11.085-12.309 10.944-31.046-0.326-43.188l-466.344-430.934c-5.94-5.453-13.698-8.493-21.76-8.531z" />
<glyph unicode="&#xe913;" glyph-name="facebook-outline" d="M599.893 537.173h42.667c5.504-0.001 10.782 2.215 14.635 6.149s5.961 9.253 5.845 14.758v68.267c0.038 10.676-8.132 19.59-18.773 20.48 0 0-30.293 2.56-67.413 2.56-91.307 0-141.653-54.187-141.653-152.32v-75.52h-84.054c-5.467 0.119-10.744-2.001-14.611-5.871-3.866-3.866-5.986-9.143-5.869-14.609v-62.293c-0.117-5.466 2.002-10.743 5.869-14.609 3.867-3.87 9.144-5.99 14.611-5.871h82.774v-241.493h124.587v241.493h75.093c10.313 0.107 19.008 7.714 20.48 17.92l7.68 62.293c0.781 5.897-1.092 11.836-5.12 16.213-3.908 4.369-9.498 6.852-15.36 6.827h-82.773v72.96c-0.013 23.074 18.325 41.975 41.387 42.667zM85.333 451.84c0 233.521 189.306 422.827 422.827 422.827 112.141 0 219.686-44.548 298.982-123.843s123.844-186.843 123.844-298.984c0-233.519-189.308-422.827-422.827-422.827-233.521 0-422.827 189.308-422.827 422.827zM866.987 451.84c0 198.174-160.653 358.827-358.827 358.827-197.98-0.469-358.358-160.847-358.827-358.827 0-198.174 160.652-358.827 358.827-358.827s358.827 160.653 358.827 358.827z" />
<glyph unicode="&#xe914;" glyph-name="instagram-outline" d="M341.333 874.667h328.533c141.385 0 256-114.615 256-256v-328.533c0-141.385-114.615-256-256-256h-328.533c-141.385 0-256 114.615-256 256v328.533c0 141.385 114.615 256 256 256zM861.867 618.667c-0.235 105.941-86.059 191.765-192 192h-328.533c-105.941-0.235-191.765-86.059-192-192v-328.533c0.235-105.941 86.059-191.765 192-192h328.533c105.941 0.235 191.765 86.059 192 192v328.533zM322.133 454.4c0.235 101.228 82.238 183.232 183.467 183.467 101.227-0.235 183.232-82.238 183.467-183.467 0-101.325-82.142-183.467-183.467-183.467s-183.467 82.142-183.467 183.467zM625.067 454.4c0 65.98-53.487 119.467-119.467 119.467-65.882-0.234-119.232-53.585-119.467-119.467 0-65.98 53.487-119.467 119.467-119.467s119.467 53.487 119.467 119.467zM661.76 682.453c0 25.567 20.727 46.293 46.293 46.293s46.293-20.726 46.293-46.293c0-25.567-20.727-46.293-46.293-46.293s-46.293 20.726-46.293 46.293z" />
<glyph unicode="&#xe915;" glyph-name="send" d="M555.674 822.642l245.75-248.32c12.324-12.494 12.324-32.733 0-45.227-5.873-6.099-13.932-9.539-22.344-9.539s-16.471 3.44-22.339 9.539l-191.795 193.707v-479.146c0-17.674-14.152-32-31.611-32s-31.616 14.326-31.616 32v479.146l-191.792-193.707c-5.869-6.085-13.94-9.476-22.341-9.386-8.391-0.040-16.444 3.343-22.341 9.386-12.327 12.494-12.327 32.733 0 45.227l245.747 248.32c12.343 12.478 32.336 12.478 44.681 0zM322.573 145.951h421.522c17.459 0 31.616-14.331 31.616-32 0-17.674-14.157-32-31.616-32h-421.522c-17.46 0-31.614 14.326-31.614 32 0 17.669 14.154 32 31.614 32z" />
<glyph unicode="&#xe916;" glyph-name="filter" horiz-adv-x="970" d="M556.566 479.497c36.417 0.875 68.948 22.993 83.149 56.536 3.034-1.278 6.273-1.983 9.561-2.078h166.308c17.219 0 31.178 13.959 31.178 31.178s-13.959 31.178-31.178 31.178h-164.228c-1.795 0.236-3.611 0.236-5.406 0-11.905 46.783-57.732 76.598-105.332 68.535-47.605-8.063-81.051-51.304-76.885-99.399s44.55-84.942 92.833-84.702v-1.247zM556.566 602.129c16.761 0 30.348-13.586 30.348-30.347s-13.587-30.346-30.348-30.346c-16.767 0-30.353 13.586-30.353 30.346s13.586 30.347 30.353 30.347zM152.445 596.309h249.456c17.222 0 31.182-13.959 31.182-31.178s-13.961-31.178-31.182-31.178h-249.456c-17.221 0-31.182 13.959-31.182 31.178s13.961 31.178 31.182 31.178zM231.855 263.745c13.023 36.832 47.826 61.472 86.894 61.526v0.83c47.015 0.059 86.631-35.075 92.184-81.753s-24.719-90.123-70.437-101.090c-45.717-10.968-92.407 14.018-108.641 58.131h-79.41c-17.221 0-31.182 13.959-31.182 31.178s13.961 31.178 31.182 31.178h79.41zM288.448 230.384c0.286-16.535 13.76-29.798 30.301-29.825v1.665c16.762 0 30.35 13.587 30.35 30.343-0.907 16.513-14.87 29.259-31.399 28.667-16.53-0.598-29.538-14.314-29.252-30.849zM485.053 263.745h332.606c17.225 0 31.183-13.959 31.183-31.178s-13.959-31.178-31.183-31.178h-332.606c-17.222 0-31.182 13.959-31.182 31.178s13.96 31.178 31.182 31.178z" />
<glyph unicode="&#xe917;" glyph-name="swiper-right" horiz-adv-x="563" d="M19.608-67.901c-13.884 13.885-13.884 36.393 0 50.278l451.309 451.308-451.309 451.309c-13.884 13.884-13.884 36.395 0 50.279s36.394 13.884 50.278 0l464.34-464.342c20.572-20.57 20.572-53.922 0-74.489l-464.34-464.343c-13.884-13.885-36.394-13.885-50.278 0z" />
<glyph unicode="&#xe918;" glyph-name="document" d="M340.911 553.402h285.866c15.914 1.859 27.909 15.34 27.909 31.36s-11.995 29.501-27.909 31.36h-285.866c-12.077 1.411-23.892-4.238-30.375-14.525s-6.483-23.382 0-33.669c6.483-10.287 18.298-15.936 30.375-14.525zM340.911 212.070h203.946c12.079-1.415 23.892 4.236 30.376 14.522s6.484 23.384 0 33.671c-6.484 10.287-18.297 15.937-30.376 14.527h-203.946c-12.077 1.41-23.892-4.24-30.375-14.527s-6.483-23.384 0-33.671c6.483-10.287 18.298-15.937 30.375-14.522zM708.268 382.734h-367.358c-12.077-1.41-23.892 4.24-30.375 14.527s-6.483 23.384 0 33.671c6.483 10.287 18.298 15.933 30.375 14.522h367.358c15.914-1.857 27.913-15.337 27.913-31.358s-11.999-29.501-27.913-31.362zM673.708-3.826h-298.664c-112.941 0.237-204.374 91.857-204.373 204.8v469.335c0.235 112.775 91.598 204.139 204.373 204.373h298.664c112.943 0 204.567-91.432 204.8-204.373v-469.335c0-54.314-21.574-106.408-59.983-144.812-38.405-38.409-90.498-59.988-144.817-59.988zM375.044 806.842c-75.308-0.234-136.299-61.225-136.533-136.533v-469.335c0-75.473 61.059-136.723 136.533-136.96h298.664c75.641 0 136.96 61.319 136.96 136.96v469.335c-0.233 75.474-61.482 136.534-136.96 136.533h-298.664z" />
<glyph unicode="&#xe919;" glyph-name="edit" d="M332.374 308.475l31.146 145.493c4.535 20.219 14.748 38.722 29.44 53.334l284.585 282.026c28.861 29.399 68.045 46.388 109.23 47.36 31.058 0.445 61.015-11.536 83.2-33.28 48.476-57.278 42.22-142.815-14.080-192.426l-284.59-284.586c-14.607-14.694-33.111-24.904-53.33-29.44l-145.495-31.145h-8.106c-10.636-0.41-20.795 4.429-27.182 12.943s-8.187 19.625-4.818 29.722zM438.186 461.648c-5.978-5.793-10.13-13.209-11.946-21.333l-20.906-99.415 99.413 21.335c8.124 1.818 15.538 5.97 21.334 11.945l284.585 284.588c31.176 24.959 37.366 69.953 14.080 102.4-10.194 9.741-23.88 14.969-37.97 14.507-24.3-0.976-47.258-11.384-64-29.014l-284.589-285.014zM849.495 493.648c-17.577-0.23-31.77-14.423-32-32v-242.773c0.568-34.314-12.662-67.425-36.731-91.894-24.064-24.468-56.95-38.246-91.269-38.241h-406.615c-70.939 1.393-127.781 59.182-128 130.135v404.906c1.165 71.036 59.088 128.010 130.134 128h242.771c17.674 0 32 14.327 32 32s-14.326 32-32 32h-244.905c-106.389 0.007-192.964-85.617-194.133-192v-404.906c0-107.218 86.916-194.135 194.133-194.135h404.905c107.054 0.236 193.71 87.086 193.71 194.135v242.773c-0.23 17.577-14.423 31.77-32 32z" />
<glyph unicode="&#xe91a;" glyph-name="eye-slash" d="M922.453 850.901c-3.25-0.81-6.091-1.891-8.759-3.263l0.226 0.105c-1.877-1.024-39.040-37.547-82.56-81.152l-79.189-79.275-21.504 14.165c-63.957 42.069-122.368 62.464-193.835 67.669-54.955 4.011-114.133-5.035-163.499-24.917-101.76-41.045-193.963-125.696-262.528-241.109-16.683-28.117-19.2-35.328-19.157-55.125 0-19.072 1.707-24.405 15.403-48.64 37.931-67.029 92.843-132.48 148.949-177.493 7.979-6.4 14.805-12.373 15.147-13.269s-35.157-37.461-78.891-81.237c-80.171-80.213-84.779-85.547-84.693-97.024 0.085-10.752 10.539-25.429 20.992-29.355 6.827-2.603 17.28-2.261 24.661 0.768 4.565 1.877 119.168 115.413 401.92 398.080 217.557 217.515 397.525 398.293 399.915 401.749 8.149 11.691 7.595 28.032-1.365 38.229-8.448 9.6-20.096 13.739-31.232 11.093zM571.733 700.629c26.88-5.547 56.277-15.701 81.067-27.989 21.248-10.539 52.053-29.184 52.053-31.531 0-0.64-20.309-21.461-45.141-46.251l-45.184-45.141-6.443 5.461c-16.319 13.758-35.672 24.521-56.857 31.131l-1.17 0.314c-19.243 5.547-56.875 5.547-76.117 0-47.36-13.696-82.517-47.189-98.773-94.251-5.461-15.787-5.632-16.981-5.632-44.373s0.171-28.587 5.632-44.373c6.315-18.304 14.976-33.92 26.923-48.384l8.107-9.856-45.099-45.141c-24.789-24.789-45.739-45.099-46.549-45.099s-7.723 4.907-15.36 10.88c-44.971 35.115-85.589 79.829-119.637 131.627-17.92 27.264-28.245 45.781-28.245 50.731 0 5.035 22.016 42.112 39.424 66.56 30.421 42.581 66.176 81.195 100.907 109.013 55.296 44.203 106.667 68.267 167.723 78.464 26.709 4.48 82.603 3.584 108.373-1.792zM828.587 579.968c-11.605-6.144-17.92-16.213-17.92-28.715 0-9.515 1.749-13.056 17.579-35.413 23.595-33.323 40.448-61.696 40.448-68.139 0-4.907-22.315-42.667-39.296-66.475-61.781-86.485-136.875-147.413-214.997-174.421-31.15-10.73-67.045-16.925-104.386-16.925-13.297 0-26.41 0.786-39.296 2.313l1.56-0.15c-5.805 0.844-12.507 1.326-19.322 1.326-1.758 0-3.508-0.032-5.25-0.096l0.252 0.007c-20.395-2.304-32.213-25.771-22.784-45.227 7.424-15.36 23.765-20.224 74.027-22.101 114.347-4.181 218.667 41.259 314.027 136.832 37.888 37.973 77.44 90.027 103.723 136.576 11.264 19.968 14.293 27.904 15.829 41.344 2.389 21.333-4.352 38.955-31.019 80.811-22.827 35.883-37.205 54.187-45.568 58.027-8.661 3.883-20.693 4.096-27.605 0.427zM527.317 526.507c10.667-2.005 27.52-10.112 35.84-17.195l5.973-5.035-113.664-113.451-5.12 5.973c-13.44 15.744-20.864 43.605-17.109 64.085 8.277 44.843 50.048 73.984 94.080 65.621z" />
<glyph unicode="&#xe91b;" glyph-name="check-circle" d="M497.777 945.75c-274.773 0-497.777-223.005-497.777-497.778s223.004-497.781 497.777-497.781c274.773 0 497.781 223.008 497.781 497.781s-223.008 497.778-497.781 497.778zM497.777 49.749c-219.52 0-398.222 178.703-398.222 398.223s178.702 398.223 398.222 398.223c219.52 0 398.223-178.703 398.223-398.223s-178.703-398.223-398.223-398.223zM690.916 632.648l-292.693-292.693-93.583 93.583c-19.413 19.413-50.773 19.413-70.187 0s-19.413-50.773 0-70.187l128.924-128.925c19.413-19.413 50.773-19.413 70.187 0l328.036 328.036c19.413 19.413 19.413 50.773 0 70.187s-51.271 19.413-70.684 0z" />
<glyph unicode="&#xe91c;" glyph-name="eye" d="M475.307 768.768c-33.323-3.413-73.899-13.227-102.485-24.747-90.069-36.309-173.269-107.563-239.061-204.715-31.445-46.464-38.485-62.933-38.656-90.453-0.213-28.416 5.504-42.197 37.205-89.6 54.187-81.024 120.363-144.384 192.811-184.704 53.803-30.8 118.262-48.963 186.963-48.963 37.355 0 73.456 5.37 107.574 15.379l-2.697-0.678c100.992 28.8 198.571 106.069 273.28 216.405 31.36 46.336 38.912 64.043 38.912 91.307 0 27.477-7.723 45.397-39.552 92.16-45.952 67.456-99.072 121.557-158.293 161.195-52.48 35.157-104.704 55.851-163.84 64.981-20.992 3.243-71.424 4.565-92.16 2.432zM555.904 703.019c51.157-7.467 95.488-25.131 143.147-57.088 48.683-32.683 101.461-87.467 139.733-145.109 31.104-46.848 32.341-52.139 17.749-77.653-32.085-56.064-81.408-113.835-131.2-153.685-66.944-53.589-136.32-79.36-213.333-79.36-78.507 0-147.115 26.069-217.6 82.773-45.355 36.48-101.12 103.125-129.536 154.837-11.307 20.565-9.173 28.587 18.603 70.613 68.096 103.040 157.525 173.867 250.027 198.059 34.688 9.088 86.443 11.861 122.411 6.613zM488.96 590.251c-15.479-3.2-29.176-7.958-41.991-14.238l1.031 0.456c-34.56-17.195-59.776-46.293-72.832-84.096-5.461-15.787-5.632-16.981-5.632-44.373s0.171-28.629 5.589-44.373c7.765-22.528 18.987-40.533 35.456-57.045 16.512-16.469 34.517-27.691 57.045-35.456 15.744-5.419 16.981-5.589 44.373-5.589s28.629 0.171 44.373 5.589c22.528 7.765 40.533 18.987 57.045 35.456 16.469 16.512 27.691 34.517 35.456 57.045 5.419 15.744 5.589 16.981 5.589 44.373s-0.171 28.587-5.632 44.373c-13.056 37.803-38.272 66.901-72.832 84.096-20.949 10.453-33.152 13.355-58.88 13.995-3.573 0.164-7.763 0.258-11.975 0.258-5.694 0-11.347-0.171-16.956-0.508l0.771 0.037zM529.536 525.696c40.533-8.576 67.84-48.768 61.184-90.069-5.621-34.26-32.3-60.939-66.095-66.497l-0.465-0.063c-53.12-8.235-99.413 38.315-90.88 91.307 5.163 32.085 29.696 58.581 60.373 65.237 13.995 3.029 21.845 3.072 35.883 0.085z" />
<glyph unicode="&#xe91d;" glyph-name="menu" d="M903.113 412.663h-782.224c-19.627 0-35.555 15.927-35.555 35.554s15.929 35.558 35.555 35.558h782.224c19.627 0 35.554-15.932 35.554-35.558s-15.927-35.554-35.554-35.554zM903.113 685.259h-782.224c-19.627 0-35.555 15.929-35.555 35.555s15.929 35.556 35.555 35.556h782.224c19.627 0 35.554-15.929 35.554-35.556s-15.927-35.555-35.554-35.555zM903.113 140.075h-782.224c-19.627 0-35.555 15.932-35.555 35.558s15.929 35.554 35.555 35.554h782.224c19.627 0 35.554-15.927 35.554-35.554s-15.927-35.558-35.554-35.558z" />
<glyph unicode="&#xe921;" glyph-name="reply" d="M842.668 746.682c-17.576-0.229-31.767-14.423-32-32v-85.333c0.461-48.232-18.493-94.623-52.601-128.73s-80.5-53.065-128.731-52.604h-392.107l201.387 202.668c7.291 12.824 4.871 28.97-5.859 39.093s-26.99 11.599-39.368 3.574l-256-255.998c-2.893-2.96-5.208-6.433-6.827-10.24-3.418-7.899-3.418-16.854 0-24.748 1.619-3.807 3.934-7.28 6.827-10.24l256-256c12.494-12.479 32.733-12.479 45.227 0 12.478 12.493 12.478 32.731 0 45.228l-201.387 202.664h392.107c65.275-0.689 128.079 24.934 174.238 71.094 46.164 46.161 71.787 108.965 71.094 174.241v85.333c-0.228 17.577-14.42 31.771-32 32z" />
<glyph unicode="&#xe922;" glyph-name="setting" d="M820.326 587.502c8.127-19.803 27.383-32.758 48.789-32.821 29.054-0.234 52.48-23.853 52.48-52.907v-91.304c0-29.221-23.687-52.908-52.904-52.908-21.406-0.061-40.667-13.019-48.794-32.819-8.127-19.805-3.519-42.552 11.674-57.633 20.378-20.885 20.378-54.211 0-75.096l-64-64c-20.885-20.378-54.211-20.378-75.096 0-9.63 10.207-23.087 15.928-37.12 15.788-14.103 0.112-27.671-5.409-37.688-15.346-10.012-9.933-15.644-23.454-15.644-37.562 0-29.217-23.687-52.904-52.908-52.904h-91.306c-29.219 0-52.907 23.687-52.907 52.904 0 14.108-5.632 27.629-15.646 37.562-10.014 9.937-23.581 15.458-37.687 15.346-14.033 0.14-27.487-5.581-37.12-15.788-20.883-20.378-54.21-20.378-75.093 0l-64 64c-20.379 20.885-20.379 54.211 0 75.096 15.192 15.081 19.798 37.827 11.672 57.633-8.127 19.8-27.386 32.759-48.792 32.819-14.032 0-27.489 5.571-37.411 15.495s-15.496 23.38-15.496 37.413v91.304c0 29.22 23.687 52.907 52.907 52.907 21.406 0.062 40.665 13.017 48.792 32.821s3.52 42.552-11.672 57.633c-20.379 20.884-20.379 54.21 0 75.094l64 64c20.883 20.379 54.21 20.379 75.093 0 9.633-10.206 23.087-15.928 37.12-15.787 14.18-0.115 27.812 5.467 37.839 15.495s15.609 23.659 15.494 37.839c0 29.219 23.687 52.906 52.907 52.906h91.734c29.217 0 52.908-23.687 52.908-52.906-0.116-14.18 5.464-27.812 15.49-37.839 10.031-10.027 23.659-15.609 37.841-15.495 14.033-0.141 27.485 5.581 37.12 15.787 20.88 20.379 54.211 20.379 75.092 0l64-64c20.378-20.884 20.378-54.21 0-75.094-15.192-15.081-19.796-37.83-11.669-57.633zM759.464 349.454c16.654 40.611 54.793 68.347 98.56 71.68l-1.28 69.976c-43.292 3.794-80.831 31.456-97.28 71.678-16.114 40.317-8.737 86.229 19.2 119.466l-49.068 49.067c-20.806-17.425-47.099-26.945-74.24-26.88-60.463 0.148-110.992 46.065-116.904 106.24h-69.976c-5.723-60.271-56.364-106.291-116.906-106.24-27.14-0.065-53.432 9.455-74.24 26.88l-47.786-49.067c27.5-33.491 34.383-79.38 17.92-119.466-16.45-40.222-53.991-67.884-97.28-71.678v-69.976c43.289-3.793 80.83-31.455 97.28-71.68 16.112-40.318 8.734-86.225-19.2-119.464l49.066-49.068c20.808 17.427 47.1 26.945 74.24 26.88 60.465-0.149 110.992-46.066 116.906-106.24h69.976c5.334 60.463 56.208 106.696 116.904 106.24 27.141 0.065 53.434-9.453 74.24-26.88l47.788 49.068c-27.499 33.489-34.383 79.379-17.92 119.464zM355.836 456.122c0 81.531 66.095 147.626 147.627 147.626 39.154 0 76.702-15.554 104.387-43.239s43.241-65.235 43.241-104.387c0-81.534-66.099-147.628-147.628-147.628-81.533 0-147.627 66.095-147.627 147.628zM418.129 456.122c0-47.127 38.205-85.332 85.334-85.332 47.127 0 85.332 38.205 85.332 85.332s-38.205 85.333-85.332 85.333c-47.129 0-85.334-38.205-85.334-85.333z" />
<glyph unicode="&#xe924;" glyph-name="trash" d="M801.705 661.342c-18.616 0-33.705-15.091-33.705-33.706v-377.175c0-79.411-64.379-143.785-143.79-143.785h-242.344c-79.411 0-143.786 64.374-143.786 143.785v377.175c0 18.615-15.091 33.706-33.706 33.706s-33.707-15.091-33.707-33.706v-377.175c1.17-116.987 96.341-211.205 213.334-211.2h242.346c116.163 1.157 210.043 95.043 211.2 211.2v377.175c0.020 9.321-3.825 18.235-10.614 24.621s-15.923 9.675-25.226 9.085zM801.705 721.928h-597.332c-18.616 0-33.707 15.091-33.707 33.707s15.091 33.706 33.707 33.706h113.066l50.346 54.614c19.246 19.566 45.515 30.627 72.96 30.72h124.584c27.049 0 52.987-10.743 72.11-29.867l51.2-55.466h113.065c18.616 0 33.705-15.091 33.705-33.706s-15.089-33.707-33.705-33.707zM565.33 807.262h-124.584c-8.529-0.003-16.749-3.199-23.040-8.96l-8.106-8.534h186.881l-8.11 8.534c-6.241 5.834-14.49 9.042-23.040 8.96zM343.039 584.968v-128c0-17.672 14.327-31.998 32-31.998s32 14.326 32 31.998v128c0 17.673-14.327 32-32 32s-32-14.327-32-32zM471.039 584.968v-341.333c0-17.674 14.327-32 32-32 17.675 0 32.001 14.326 32.001 32v341.333c0 17.673-14.326 32-32.001 32-17.673 0-32-14.327-32-32zM599.040 584.968v-128c0-17.672 14.326-31.998 32-31.998s32 14.326 32 31.998v128c0 17.673-14.326 32-32 32s-32-14.327-32-32z" />
</font>
</defs>
</svg>
